时代影视论坛(NowYS小组)

 找回密码
 立即注册
搜索
查看: 396|回复: 0

[BT下载]盖瑞·山德林的禅意日记 2018.720p.AMZN.WEBRip.DDP5.1.x264-monkee 4.2GB

[复制链接]

该用户从未签到

发表于 2018-4-25 13:32:20 | 显示全部楼层 |阅读模式
台湾UU

马上注册,结交更多好友,享用更多功能,让你轻松玩转社区。

您需要 登录 才可以下载或查看,没有帐号?立即注册

x
[2018] [欧美] [纪录] [WEB-720P][BT下载]盖瑞·山德林的禅意日记 2018.720p.AMZN.WEBRip.DDP5.1.x264-monkee 4.2GB



-->

The.Zen.Diaries.of.Garry.Shandling.Part.2.2018.720p.AMZN.WEBRip.DDP5.1.x264-monkee

The.Zen.Diaries.of.Garry.Shandling.Part.2.2018.720p.AMZN.WEBRip.DDP5.1.x264-monkee

◎译  名 盖瑞·山德林的禅意日记
◎片  名 The Zen Diaries of Garry Shandling
◎年  代 2018
◎产  地 美国
◎类  别 纪录片
◎语  言 英语
◎上映日期 2018-03-26(美国)
◎IMDb评分  8.7/10 from 428 users
◎IMDb链接  http://www.imdb.com/title/tt7860890/
◎BT之家整理 http://www.btbtt.co
◎导  演 贾德·阿帕图 Judd Apatow
◎主  演 萨莎·拜伦·科恩 Sacha Baron Cohen
      詹姆斯·L·布鲁克斯 James L. Brooks
      金·凯瑞 Jim Carrey
      戴夫·库里尔 Dave Coulier
      乔恩·费儒 Jon Favreau
      柯南·奥布莱恩 Conan O'Brien
      杰瑞·宋飞 Jerry Seinfeld
      萨拉·西尔弗曼 Sarah Silverman


◎简  介


  A look at the life and career of stand-up comedian and actor| Garry Shandling through his personal diaries.


Video
ID                                       : 1
Format                                   : AVC
Format/Info                              : Advanced Video Codec
Format profile                           : High@L3.1
Format settings                          : CABAC / 5 Ref Frames
Format settings, CABAC                   : Yes
Format settings, ReFrames                : 5 frames
Codec ID                                 : V_MPEG4/ISO/AVC
Duration                                 : 2 h 24 min
Bit rate mode                            : Variable
Bit rate                                 : 3 448 kb/s
Maximum bit rate                         : 4 500 kb/s
Width                                    : 1 280 pixels
Height                                   : 720 pixels
Display aspect ratio                     : 16:9
Frame rate mode                          : Constant
Frame rate                               : 23.976 (24000/1001) FPS
Color space                              : YUV
Chroma subsampling                       : 4:2:0
Bit depth                                : 8 bits
Scan type                                : Progressive
Bits/(Pixel*Frame)                       : 0.156
Stream size                              : 3.48 GiB (83%)
Default                                  : Yes
Forced                                   : No
Color range                              : Limited
Color primaries                          : BT.709
Transfer characteristics                 : BT.709
Matrix coefficients                      : BT.709
Statistics Tags Issue                    : mkvmerge v21.0.0 (\'Tardigrades Will Inherit The Earth\') 64-bit 2018-03-29 02:25:31 / mkvmerge v21.0.0 (\'Tardigrades Will Inherit The Earth\') 64-bit
FromStats_BitRate                        : 3528793
FromStats_Duration                       : 02:24:19.818000000
FromStats_FrameCount                     : 207628
FromStats_StreamSize                     : 3819838192

Audio
ID                                       : 2
Format                                   : E-AC-3
Format/Info                              : Enhanced Audio Coding 3
Codec ID                                 : A_EAC3
Duration                                 : 2 h 24 min
Bit rate mode                            : Constant
Bit rate                                 : 640 kb/s
Channel(s)                               : 6 channels
Channel positions                        : Front: L C R, Side: L R, LFE
Sampling rate                            : 48.0 kHz
Frame rate                               : 187.500 FPS (256 SPF)
Compression mode                         : Lossy
Delay relative to video                  : 30 ms
Stream size                              : 661 MiB (15%)
Language                                 : English
Service kind                             : Complete Main
Default                                  : Yes
Forced                                   : No
Statistics Tags Issue                    : mkvmerge v21.0.0 (\'Tardigrades Will Inherit The Earth\') 64-bit 2018-03-29 02:25:31 / mkvmerge v21.0.0 (\'Tardigrades Will Inherit The Earth\') 64-bit
FromStats_BitRate                        : 640000
FromStats_Duration                       : 02:24:19.744000000
FromStats_FrameCount                     : 270617
FromStats_StreamSize                     : 692779520

Text #1
ID                                       : 3
Format                                   : UTF-8
Codec ID                                 : S_TEXT/UTF8
Codec ID/Info                            : UTF-8 Plain Text
Language                                 : English
Default                                  : No
Forced                                   : No
Statistics Tags Issue                    : mkvmerge v21.0.0 (\'Tardigrades Will Inherit The Earth\') 64-bit 2018-03-29 02:25:31 / mkvmerge v21.0.0 (\'Tardigrades Will Inherit The Earth\') 64-bit
FromStats_BitRate                        : 104
FromStats_Duration                       : 02:23:53.792000000
FromStats_FrameCount                     : 3093
FromStats_StreamSize                     : 112283

Text #2
ID                                       : 4
Format                                   : UTF-8
Codec ID                                 : S_TEXT/UTF8
Codec ID/Info                            : UTF-8 Plain Text
Title                                    : SDH
Language                                 : English
Default                                  : No
Forced                                   : No
Statistics Tags Issue                    : mkvmerge v21.0.0 (\'Tardigrades Will Inherit The Earth\') 64-bit 2018-03-29 02:25:31 / mkvmerge v21.0.0 (\'Tardigrades Will Inherit The Earth\') 64-bit
FromStats_BitRate                        : 108
FromStats_Duration                       : 02:23:53.792000000
FromStats_FrameCount                     : 3224
FromStats_StreamSize                     : 117071



cf22a0d1fe3b4c971c5e549e37f0a40d.jpg
4ab109381e98afa72f3af0b6bed48438.jpg



de7e7728f1cda9d949e1463c573d59c2.torrent (84.69 KB, 下载次数: 11)
回复

使用道具 举报

您需要登录后才可以回帖 登录 | 立即注册

本版积分规则

Archiver|手机版|小黑屋|时代影视论坛 ( 宁ICP备16002180号-4 )

GMT+8, 2018-12-10 16:14 , Processed in 0.117772 second(s), 26 queries , Gzip On.

Powered by 时代影视 X3.2

© 2001-2013 Comsenz Inc.

快速回复 返回顶部 返回列表