时代影视论坛(NowYS)

 找回密码
 立即注册
搜索
查看: 286|回复: 0

[BT下载]一言以蔽之 Banana.in.a.Nutshell.2005.1080p.AMZN.WEBRip.DDP2.0.x264-alfaH ...

[复制链接]

该用户从未签到

发表于 2018-4-25 16:33:03 | 显示全部楼层 |阅读模式
台湾UU

马上注册,结交更多好友,享用更多功能,让你轻松玩转社区。

您需要 登录 才可以下载或查看,没有帐号?立即注册

x
[更 早] [欧美] [纪录] [WEB-1080P][BT下载]一言以蔽之 Banana.in.a.Nutshell.2005.1080p.AMZN.WEBRip.DDP2.0.x264-alfaHD 4.5GB



-->

Banana.in.a.Nutshell.2005.1080p.AMZN.WEBRip.DDP2.0.x264-alfaHD

Banana.in.a.Nutshell.2005.1080p.AMZN.WEBRip.DDP2.0.x264-alfaHD

◎译  名 一言以蔽之
◎片  名 Banana in a Nutshell
◎年  代 2005
◎产  地 新西兰
◎类  别 纪录片
◎语  言 英语/汉语普通话
◎上映日期 2005
◎IMDb评分  7.0/10 from 27 users
◎IMDb链接  http://www.imdb.com/title/tt1537196/
◎BT之家整理 http://www.btbtt.co
◎片  长 New Zealand: 55 分钟
◎导  演 Roseanne Liang
◎主  演 Roseanne Liang
      Stephen Harris


◎简  介


  An intimate portrait of a Chinese-European couple in New Zealand| and their journey to get a blessing for marriage from traditional Chinese parents.


Video
ID                                       : 1
Format                                   : AVC
Format/Info                              : Advanced Video Codec
Format profile                           : High@L4
Format settings                          : CABAC / 4 Ref Frames
Format settings, CABAC                   : Yes
Format settings, ReFrames                : 4 frames
Codec ID                                 : V_MPEG4/ISO/AVC
Duration                                 : 1 h 23 min
Bit rate mode                            : Variable
Bit rate                                 : 7 600 kb/s
Maximum bit rate                         : 15.0 Mb/s
Width                                    : 1 920 pixels
Height                                   : 1 080 pixels
Display aspect ratio                     : 16:9
Frame rate mode                          : Constant
Frame rate                               : 25.000 FPS
Color space                              : YUV
Chroma subsampling                       : 4:2:0
Bit depth                                : 8 bits
Scan type                                : Progressive
Bits/(Pixel*Frame)                       : 0.147
Stream size                              : 4.44 GiB (97%)
Default                                  : Yes
Forced                                   : No
Color range                              : Limited
Color primaries                          : BT.709
Transfer characteristics                 : BT.709
Matrix coefficients                      : BT.709

Audio
ID                                       : 2
Format                                   : E-AC-3
Format/Info                              : Enhanced Audio Coding 3
Codec ID                                 : A_EAC3
Duration                                 : 1 h 23 min
Bit rate mode                            : Constant
Bit rate                                 : 224 kb/s
Channel(s)                               : 2 channels
Channel positions                        : Front: L R
Sampling rate                            : 48.0 kHz
Frame rate                               : 187.500 FPS (256 SPF)
Compression mode                         : Lossy
Stream size                              : 134 MiB (3%)
Language                                 : English
Service kind                             : Complete Main
Default                                  : Yes
Forced                                   : No

Text #1
ID                                       : 3
Format                                   : UTF-8
Codec ID                                 : S_TEXT/UTF8
Codec ID/Info                            : UTF-8 Plain Text
Duration                                 : 1 h 22 min
Bit rate                                 : 103 b/s
Count of elements                        : 1716
Stream size                              : 62.4 KiB (0%)
Language                                 : English
Default                                  : No
Forced                                   : No

Text #2
ID                                       : 4
Format                                   : UTF-8
Codec ID                                 : S_TEXT/UTF8
Codec ID/Info                            : UTF-8 Plain Text
Duration                                 : 1 h 22 min
Bit rate                                 : 103 b/s
Count of elements                        : 1716
Stream size                              : 62.4 KiB (0%)
Title                                    : SDH
Language                                 : English
Default                                  : No
Forced                                   : No

Text #3
ID                                       : 5
Format                                   : UTF-8
Codec ID                                 : S_TEXT/UTF8
Codec ID/Info                            : UTF-8 Plain Text
Duration                                 : 1 h 22 min
Bit rate                                 : 103 b/s
Count of elements                        : 1716
Stream size                              : 62.4 KiB (0%)
Language                                 : English
Default                                  : No
Forced                                   : No



c09d2baa81ec1378d9e932a19cb33e26.jpg
fcfbe0fec59c44c772d29f5bd321eb36.jpg



2cbc814c5f6532d9ff7323d8871413bf.torrent (92.05 KB, 下载次数: 13)
回复

使用道具 举报

您需要登录后才可以回帖 登录 | 立即注册

本版积分规则

Archiver|手机版|小黑屋|时代影视论坛(NowYS小组) ( 宁ICP备16002180号-4 )

GMT+8, 2018-5-22 12:29 , Processed in 0.170086 second(s), 30 queries , Gzip On.

Powered by 时代影视 X3.2

© 2001-2013 Comsenz Inc.

快速回复 返回顶部 返回列表